Today-Warez.Net

MomsTeachingTeens - Terraka And Suzie

  1. Offline

    salty84

    Members

    Posts: 74




    MomsTeachingTeens - Terraka And Suzie
    MomsTeachingTeens - Terraka And Suzie





    Video #2
    ID : 2
    Format : VC-1
    Format profile : MP@ML
    Codec ID : WMV3
    Codec ID/Info : Windows Media Video 9
    Codec ID/Hint : WMV3
    Description of the codec : Windows Media Video 9 - Professional
    Duration : 24mn 46s
    Bit rate mode : Constant
    Bit rate : 2 090 Kbps
    Width : 800 pixels
    Height : 600 pixels
    Display aspect ratio : 4:3
    Frame rate : 29.970 fps
    Bit depth : 8 bits
    Scan type : Progressive
    Compression mode : Lossy
    Bits/(Pixel*Frame) : 0.227
    Stream size : 370 MiB (95%)
    Language : English (CA)
    Audio #1
    ID : 1
    Format : WMA
    Format version : Version 2
    Codec ID : 161
    Codec ID/Info : Windows Media Audio
    Description of the codec : Windows Media Audio 9.2 - 96 kbps, 44 kHz, stereo 2-pass CBR
    Duration : 24mn 46s
    Bit rate mode : Constant
    Bit rate : 96.0 Kbps
    Channel(s) : 2 channels
    Sampling rate : 44.1 KHz
    Bit depth : 16 bits
    Stream size : 17.0 MiB (4%)
    Language : English (CA




    Download:

    http://uploking.com/file/ddjso/ktr.mtt.13.01.05.terraka.and.suzie.wmv






    12 February 2013 - 23:23 / #1

Members who are reading this topic

Currently Online:1
(Members:0, Guests: 1)

Disclaimer: None of the files shown here are hosted or transmitted by this server. The links are provided solely by this site's users. The administrator of this site (Today-warez.net) cannot be held responsible for what its users post, or any other actions of its users. You may not use this site to distribute or download any material when you do not have the legal rights to do so. It is your own responsibility to adhere to these terms. If you have any doubts about legality of content or you have another suspicions, feel free to contact us at dmca Feedback